top of page

Market Research Group

Público·10 miembros
Charles Vorontsov
Charles Vorontsov

Le Seigneur Des Anneaux Trilogie Version Longue 720p French Bluray X264 35



delharr 19191a764c -seigneur-des-anneaux-trilogie-version-longue-720p-french-bluray-x264-lost[ -seigneur-des-anneaux-trilogie-version-longue-720p-french-bluray-x264-lost ][ -seigneur-des-anneaux-trilogie-version-longue-720p-french-bluray-x264-lost ][ -seigneur-des-anneaux-trilogie-version-longue-720p-french-bluray-x264-lost ]link= -seigneur-des-anneaux-trilogie-version-longue-720p-french-bluray-x264-lostlink= -seigneur-des-anneaux-trilogie-version-longue-720p-french-bluray-x264-lostlink= -seigneur-des-anneaux-trilogie-version-longue-720p-french-bluray-x264-lost




Le seigneur des anneaux trilogie version longue 720p french bluray x264 35



NFO Trilogie :Complete name : Le.seigneur.des.anneaux.la.Communaute.de.l.anneau. VL.MULTI.HDTV.720p .mkvFormat : MatroskaFile size : 7.94 GiBDuration : 3h 48mnOverall bit rate : 4 983 KbpsEncoded date : UTC 2009-07-30 09:05:16Writing application : mkvmerge v2.9.7 ('Tenderness') built on Jul 1 2009 18:43:35Writing library : libebml v0.7.7 + libmatroska v0.8.1VideoID : 1Format : AVCFormat/Info : Advanced Video CodecFormat profile : High@L4.1Format settings, CABAC : YesFormat settings, ReFrames : 4 framesMuxing mode : Container profile=Unknown@4.1Codec ID : V_MPEG4/ISO/AVCDuration : 3h 47mnBit rate : 3 489 KbpsNominal bit rate : 4 000 KbpsWidth : 1 280 pixelsHeight : 528 pixelsDisplay aspect ratio : 2.40:1Frame rate : 23.976 fpsResolution : 24 bitsColorimetry : 4:2:0Scan type : ProgressiveBits/(Pixel*Frame) : 0.215Stream size : 5.56 GiB (70%)Writing library : x264 core 67 r1148M 400740bEncoding settings : cabac=1 / ref=4 / deblock=1:-3:-3 / analyse=0x3:0x113 / me=hex / subme=9 / psy_rd=1.0:0.0 / mixed_ref=0 / me_range=16 / chroma_me=1 / trellis=0 / 8x8dct=1 / cqm=0 / deadzone=21,11 / chroma_qp_offset=-2 / threads=3 / nr=0 / decimate=1 / mbaff=0 / bframes=3 / b_pyramid=0 / b_adapt=1 / b_bias=0 / direct=3 / wpredb=1 / keyint=250 / keyint_min=25 / scenecut=40 / rc=2pass / bitrate=4000 / ratetol=1.0 / qcomp=0.60 / qpmin=10 / qpmax=51 / qpstep=4 / cplxblur=20.0 / qblur=0.5 / vbv_maxrate=50000 / vbv_bufsize=50000 / ip_ratio=1.40 / pb_ratio=1.30 / aq=1:1.00Language : EnglishAudio #1ID : 2Format : AC-3Format/Info : Audio Coding 3Codec ID : A_AC3Duration : 3h 48mnBit rate mode : ConstantBit rate : 640 KbpsChannel(s) : 6 channelsChannel positions : Front: L C R, Surround: L R, LFESampling rate : 48.0 KHzStream size : 1.02 GiB (13%)Language : FrenchAudio #2ID : 3Format : DTSFormat/Info : Digital Theater SystemsCodec ID : A_DTSDuration : 3h 48mnBit rate mode : ConstantBit rate : 754 KbpsChannel(s) : 6 channelsChannel positions : Front: L C R, Surround: L R, LFESampling rate : 48.0 KHzResolution : 24 bitsStream size : 1.20 GiB (15%)Language : EnglishText #1ID : 4Format : UTF-8Codec ID : S_TEXT/UTF8Codec ID/Info : UTF-8 Plain TextTitle : subforcedLanguage : FrenchText #2ID : 5Format : UTF-8Codec ID : S_TEXT/UTF8Codec ID/Info : UTF-8 Plain TextLanguage : FrenchComplete name : Le.seigneur.des.anneaux.les.Deux.Tours.VL.MULTI.HD TV.720p .mkvFormat : MatroskaFile size : 8.15 GiBDuration : 3h 44mnOverall bit rate : 5 204 KbpsEncoded date : UTC 2009-08-15 14:37:11Writing application : mkvmerge v2.7.0 ('Do It Again') built on Apr 15 2009 00:27:10Writing library : libebml v0.7.7 + libmatroska v0.8.1Cover : Yes / YesVideoID : 1Format : AVCFormat/Info : Advanced Video CodecFormat profile : High@L4.1Format settings, CABAC : YesFormat settings, ReFrames : 4 framesMuxing mode : Container profile=Unknown@4.1Codec ID : V_MPEG4/ISO/AVCDuration : 3h 43mnBit rate : 3 898 KbpsNominal bit rate : 4 000 KbpsWidth : 1 280 pixelsHeight : 528 pixelsDisplay aspect ratio : 2.40:1Frame rate : 23.976 fpsResolution : 24 bitsColorimetry : 4:2:0Scan type : ProgressiveBits/(Pixel*Frame) : 0.241Stream size : 6.10 GiB (75%)Writing library : x264 core 68 r1183M f21daffEncoding settings : cabac=1 / ref=4 / deblock=1:-1:-1 / analyse=0x3:0x113 / me=umh / subme=7 / psy_rd=1.0:0.0 / mixed_ref=1 / me_range=16 / chroma_me=1 / trellis=2 / 8x8dct=1 / cqm=0 / deadzone=21,11 / chroma_qp_offset=-2 / threads=3 / nr=0 / decimate=1 / mbaff=0 / bframes=3 / b_pyramid=0 / b_adapt=2 / b_bias=0 / direct=3 / wpredb=1 / keyint=250 / keyint_min=25 / scenecut=40 / rc=2pass / bitrate=4000 / ratetol=1.0 / qcomp=0.60 / qpmin=10 / qpmax=51 / qpstep=4 / cplxblur=20.0 / qblur=0.5 / vbv_maxrate=50000 / vbv_bufsize=50000 / ip_ratio=1.40 / pb_ratio=1.30 / aq=1:1.00Language : EnglishAudio #1ID : 2Format : AC-3Format/Info : Audio Coding 3Codec ID : A_AC3Duration : 3h 44mnBit rate mode : ConstantBit rate : 448 KbpsChannel(s) : 6 channelsChannel positions : Front: L C R, Surround: L R, LFESampling rate : 48.0 KHzStream size : 718 MiB (9%)Title : PCM (AC3) 48000Hz 6ch 448KbpsLanguage : FrenchAudio #2ID : 3Format : DTSFormat/Info : Digital Theater SystemsFormat profile : ESCodec ID : A_DTSDuration : 3h 44mnBit rate mode : ConstantBit rate : 754 KbpsChannel(s) : 7 channelsChannel positions : Front: L C R, Rear: L C R, LFESampling rate : 48.0 KHzResolution : 24 bitsVideo delay : 11msStream size : 1.18 GiB (14%)Title : PCM (DTS) 48000Hz 6ch 754KbpsLanguage : EnglishText #1ID : 4Format : UTF-8Codec ID : S_TEXT/UTF8Codec ID/Info : UTF-8 Plain TextTitle : Passages Elfiques UniquementLanguage : FrenchText #2ID : 5Format : UTF-8Codec ID : S_TEXT/UTF8Codec ID/Info : UTF-8 Plain TextTitle : Sourds et MalentendantsLanguage : FrenchText #3ID : 6Format : UTF-8Codec ID : S_TEXT/UTF8Codec ID/Info : UTF-8 Plain TextTitle : VOLanguage : EnglishComplete name : Le.seigneur.des.anneaux.le.Retour.du.Roi.VL.MULTI. HDTV.720p .mkvFormat : MatroskaFile size : 9.35 GiBDuration : 4h 23mnOverall bit rate : 5 088 KbpsEncoded date : UTC 2009-08-19 13:09:17Writing application : mkvmerge v2.7.0 ('Do It Again') built on Apr 15 2009 00:27:10Writing library : libebml v0.7.7 + libmatroska v0.8.1VideoID : 1Format : AVCFormat/Info : Advanced Video CodecFormat profile : High@L4.1Format settings, CABAC : YesFormat settings, ReFrames : 4 framesMuxing mode : Container profile=Unknown@4.1Codec ID : V_MPEG4/ISO/AVCDuration : 4h 22mnBit rate : 3 707 KbpsNominal bit rate : 4 000 KbpsWidth : 1 280 pixelsHeight : 528 pixelsDisplay aspect ratio : 2.40:1Frame rate : 23.976 fpsResolution : 24 bitsColorimetry : 4:2:0Scan type : ProgressiveBits/(Pixel*Frame) : 0.229Stream size : 6.81 GiB (73%)Writing library : x264 core 68 r1183M f21daffEncoding settings : cabac=1 / ref=4 / deblock=1:-1:-1 / analyse=0x3:0x113 / me=umh / subme=7 / psy_rd=1.0:0.0 / mixed_ref=1 / me_range=16 / chroma_me=1 / trellis=2 / 8x8dct=1 / cqm=0 / deadzone=21,11 / chroma_qp_offset=-2 / threads=3 / nr=0 / decimate=1 / mbaff=0 / bframes=3 / b_pyramid=0 / b_adapt=2 / b_bias=0 / direct=3 / wpredb=1 / keyint=250 / keyint_min=25 / scenecut=40 / rc=2pass / bitrate=4000 / ratetol=1.0 / qcomp=0.60 / qpmin=10 / qpmax=51 / qpstep=4 / cplxblur=20.0 / qblur=0.5 / vbv_maxrate=50000 / vbv_bufsize=50000 / ip_ratio=1.40 / pb_ratio=1.30 / aq=1:1.00Language : EnglishAudio #1ID : 2Format : AC-3Format/Info : Audio Coding 3Codec ID : A_AC3Duration : 4h 23mnBit rate mode : ConstantBit rate : 640 KbpsChannel(s) : 6 channelsChannel positions : Front: L C R, Surround: L R, LFESampling rate : 48.0 KHzStream size : 1.18 GiB (13%)Title : Dolby digital 5.1 by VinzzounetLanguage : FrenchAudio #2ID : 3Format : AC-3Format/Info : Audio Coding 3Codec ID : A_AC3Duration : 4h 23mnBit rate mode : ConstantBit rate : 640 KbpsChannel(s) : 6 channelsChannel positions : Front: L C R, Surround: L R, LFESampling rate : 48.0 KHzStream size : 1.18 GiB (13%)Title : Dolby digital 5.1 by VinzzounetLanguage : EnglishTextID : 4Format : UTF-8Codec ID : S_TEXT/UTF8Codec ID/Info : UTF-8 Plain TextTitle : Sourds et Malentendants by VinzzounetLanguage : French


Acerca de

Welcome to the group! You can connect with other members, ge...

Miembros

Página del grupo: Groups_SingleGroup
bottom of page